#TITLE:Beethoven Virus;
#SUBTITLE:;
#ARTIST:BanYa;
#TITLETRANSLIT:;
#SUBTITLETRANSLIT:;
#ARTISTTRANSLIT:;
#CREDIT:;
#BANNER:bvirus-bn.JPG;
#BACKGROUND:bvirus-bg.jpg;
#LYRICSPATH:;
#CDTITLE:;
#MUSIC:Beethoven Virus.mp3;
#OFFSET:-5.460;
#SAMPLESTART:17.400;
#SAMPLELENGTH:11.720;
#SELECTABLE:YES;
#BPMS:0.000=162.000;
#STOPS:;
#BGCHANGES:;
// cache tags:
#FIRSTBEAT:0.000;
#LASTBEAT:248.000;
#SONGFILENAME:Songs/nhac/Beethoven Virus/Beethoven Virus.sm;
#HASMUSIC:1;
#HASBANNER:1;
#MUSICLENGTH:100.236;
// end cache tags

//---------------dance-single - ----------------
#NOTES:
     dance-single:
     :
     Hard:
     8:
     0.581,0.619,0.389,0.429,0.065,326.000,39.000,43.000,0.000,0.000:
1000
0100
1000
1100
0000
0000
0010
0001
,
0000
0000
0100
0001
0000
0000
0000
0000
,
0001
0010
0001
0011
0000
1010
0000
0110
,
0000
1100
0000
2002
0000
0000
0000
3003
,
0000
1000
0100
2000
0000
3000
0000
0011
,
0000
0001
0010
0002
0000
0003
0000
1100
,
0000
0010
0100
0010
0000
0000
1000
0002
,
0000
0003
0100
0002
0000
0000
0003
0000
,
0000
0010
0100
0001
0000
0000
0010
2000
,
0000
3000
0010
0002
0000
0000
0003
0000
,
0001
0100
1000
0101
0000
1010
0000
0011
,
0000
1001
0000
0220
0000
0000
0000
0330
,
0000
0100
0001
0020
0000
0030
0000
1100
,
0000
0100
0010
2000
0000
3000
0000
0101
,
0000
0001
0010
0100
0000
0000
1000
0200
,
0000
0000
0310
0002
0000
0000
0000
0000
,
1003
0010
0100
0001
1000
0010
0100
1000
,
0010
0001
0100
1000
1000
0100
0100
0001
,
0001
0001
0100
0010
1000
0100
0010
1000
,
0001
0100
0100
0001
0001
1000
1000
0010
,
0010
1000
0100
0010
0001
0100
0010
2000
,
0000
3010
0000
0001
0010
0100
1000
0100
,
0010
0001
0100
0010
0001
1000
0010
0200
,
0000
0301
0000
0001
0100
0010
1000
0010
,
0100
0000
0001
0000
0100
0010
0200
0000
0000
0000
0300
0000
1000
0000
0001
0000
,
0100
1000
0010
0100
0001
1000
0010
0100
,
0001
0000
0100
0000
1000
0000
0020
0000
0000
0000
0030
0000
0100
0001
0100
0000
,
1000
0010
0100
1000
0010
0100
1000
0010
,
0001
0000
0100
0000
1000
0000
2002
0000
0000
0000
3003
0000
0100
0010
0100
0010
,
0100
1000
0001
0100
0100
0001
0001
1000
,
1000
0000
0010
0000
0010
0000
0200
0000
0000
0000
0000
0000
1300
0001
1000
0000
,
0100
0001
0010
2020
0000
0000
0000
0000
,
0000
0000
3030
0101
0001
0100
0001
0100
,
0001
0100
0001
0110
0100
0010
0100
0010
,
0100
0010
0100
1100
1000
0100
1000
0100
,
1000
0100
1000
1001
0001
1000
0001
1000
,
0001
1000
0001
1010
1000
0010
1000
0010
,
1000
0010
1000
0011
0010
0001
0010
0001
,
0010
0001
0010
0200
0000
0000
0000
0000
,
0000
0000
0000
1000
0000
1000
0000
2000
,
0000
0000
3300
2000
0000
3200
0000
0302
,
0100
1003
0010
0100
0000
1010
0100
0001
,
0000
1100
0010
1000
0000
0102
0000
1003
,
0001
0000
0010
0000
0100
0000
1000
0100
0000
0000
0010
1000
0000
0000
0100
0010
,
0000
0000
1000
0001
0000
0000
2002
0000
0000
0000
0000
0000
0000
0000
3003
0000
,
0000
1000
0010
0002
0000
0003
0000
0011
,
0000
0001
0010
2000
0000
3000
0000
1010
,
0000
0001
1000
0002
0000
0003
0010
0200
,
0000
0300
1000
0002
0000
0000
0000
0003
,
0000
0010
0100
0001
0000
0101
1000
0010
,
0000
0110
1000
0001
0000
0012
0000
0103
,
1000
0000
0100
0000
0001
0000
0100
1000
0000
0000
0100
0001
0000
0000
0010
0001
,
0000
0000
0010
1000
0000
0000
2020
0000
0000
0000
0000
0000
0000
0000
3030
0000
,
0000
0100
0010
2000
0000
0000
0000
3010
,
0000
0100
0001
2000
0000
0000
0000
3100
,
0000
0010
0001
0011
0000
0000
0010
1000
,
0000
0000
0010
0001
0000
0000
0000
0000
,
0000
1000
0001
1001
0000
0000
0000
0110
,
0000
0010
0100
0110
0000
0000
0000
1001
,
0000
1000
0100
0001
0000
0000
0010
0001
,
0000
0000
0010
1000
0000
0000
0000
0000
,
0000
0000
0000
2002
0000
0000
0000
0000
,
3003
0000
0000
0000
;

//---------------dance-single - ----------------
#NOTES:
     dance-single:
     :
     Medium:
     5:
     0.392,0.463,0.269,0.200,0.000,228.000,27.000,20.000,0.000,0.000:
1000
0100
1000
0100
0000
0000
0000
0001
,
0000
0000
0000
1000
0000
0000
0000
0000
,
0000
1000
0000
0001
0000
0010
0000
0100
,
0000
1000
0000
2002
0000
0000
0000
3003
,
0000
0000
0000
1000
0000
0000
0000
0010
,
0000
0000
0000
0100
0000
0000
0000
0001
,
0000
0000
0000
1000
0000
0000
0000
0100
,
0000
0000
1000
0001
0000
0000
0000
0000
,
0100
0001
0100
0001
0000
0000
0000
1000
,
0000
0000
0000
0010
0000
0000
0000
0000
,
0000
0100
0000
1000
0000
0001
0000
0010
,
0000
0100
0000
0001
0000
0000
0000
0000
,
0000
0000
0000
1000
0000
0000
0000
0010
,
0000
0000
0000
1000
0000
0000
0000
0001
,
0000
0000
0000
0010
0000
0000
0000
0100
,
0000
0000
0100
0010
0000
0000
0000
0000
,
0001
1000
0001
0100
0000
0010
0000
1000
,
0000
0001
0000
0010
0000
1000
0000
0010
,
0001
0100
0000
0001
0000
0010
0000
0100
,
0000
1000
0000
0010
0000
0100
0000
0001
,
1000
0010
0000
0001
0000
1000
0000
0010
,
0000
0100
0000
0100
0010
1000
0001
0100
,
0010
1000
0000
0010
0000
0100
0000
0001
,
0000
1000
0000
0001
0000
1000
0000
0001
,
0000
1000
0100
0001
0000
0000
0000
1000
,
0000
0100
0000
0010
0000
0001
0000
0010
,
0000
0100
0000
1000
0000
0000
0001
0100
,
0010
1000
0000
0100
0000
0010
0000
1000
,
0000
0001
0000
0020
0000
0030
0000
0001
,
0000
0100
0000
0011
0000
0110
0000
0011
,
0000
0110
0000
0011
0000
0000
0001
0100
,
0010
1000
0100
0001
1000
0001
1000
0001
,
1000
0001
1000
2001
0000
0100
0000
0010
,
0000
3001
0000
0120
0000
1000
0000
0001
,
0000
0130
0000
1002
0000
0100
0000
0010
,
0000
1003
0000
0021
0000
1000
0000
0100
,
0000
1030
0000
0102
0000
1000
0000
0010
,
0000
0103
0000
2010
0000
0001
0000
0100
,
0000
3010
0000
0001
0100
0010
1000
0001
,
0100
0010
1000
0100
0010
0001
1000
2000
,
0000
3000
0000
0101
0000
1100
0000
0101
,
0100
0001
0100
0001
0000
1100
0000
0001
,
0000
0110
0000
1000
0000
1001
0000
1001
,
0000
0200
0000
1300
0000
0100
0000
0010
,
0000
0001
0000
2000
0000
3000
0000
0000
,
0000
0000
0000
0002
0000
0000
0000
0013
,
0000
0000
0000
0002
0000
0000
0000
0103
,
0000
1000
0100
1000
0000
0000
0001
0010
,
0000
0000
0100
1000
0000
0000
0000
0000
,
0010
0100
0010
0100
0000
1100
0000
0001
,
0000
1100
0000
0010
0000
1100
0000
1100
,
0000
1000
0000
0010
0000
0100
0000
1000
,
0000
0100
0000
0202
0000
0303
0000
0000
,
0000
2000
0000
0000
0000
0000
0000
3001
,
0000
0002
0000
0000
0000
0000
0000
1003
,
0000
0010
0100
0010
0000
0000
0001
1000
,
0000
0000
0001
1000
0000
0000
0000
0000
,
0000
0010
0100
1000
0000
0000
0000
0110
,
0000
0100
0010
0001
0000
0000
0000
0110
,
0000
1000
0001
0010
0000
0000
0100
0010
,
0000
0000
1000
0001
0000
0000
0000
0000
,
0000
0000
0000
2002
0000
0000
0000
3003
;

//---------------dance-single - ----------------
#NOTES:
     dance-single:
     :
     Beginner:
     2:
     0.202,0.214,0.080,0.010,0.000,133.000,8.000,1.000,0.000,0.000:
0000
0000
0000
0100
0000
0000
0000
0000
,
0000
0000
0000
1000
0000
0000
0000
0000
,
0000
0000
0000
0010
0000
0010
0000
0010
,
0000
0010
0000
0010
0000
0000
0000
0000
,
0000
0000
0000
1000
0000
0000
0000
0001
,
0000
0000
0000
1000
0000
0000
0000
0001
,
0000
0000
0000
0100
0000
0000
0000
1000
,
0000
0000
0000
0010
0000
0000
0000
0000
,
0000
0000
0000
1001
0000
0000
0000
0000
,
0000
0000
0000
0010
0000
0000
0000
0000
,
0000
0000
0000
0001
0000
0001
0000
0001
,
0000
0001
0000
0001
0000
0000
0000
0000
,
0000
0000
0000
1000
0000
0000
0000
0010
,
0000
0000
0000
0001
0000
0000
0000
0100
,
0000
0000
0000
1000
0000
0000
0000
0001
,
0000
0000
0000
0100
0000
0000
0000
0000
,
0000
1000
0000
1000
0000
0000
0000
1000
,
0000
0000
0000
0001
0000
0001
0000
0001
,
0000
0000
0000
0010
0000
0010
0000
0000
,
0000
0100
0000
0100
0000
0000
0000
1000
,
0000
0000
0000
0001
0000
0001
0000
0001
,
0000
0001
0000
0001
0000
0000
0000
0010
,
0000
0000
0000
0000
0000
1000
0000
1000
,
0000
1000
0000
1000
0000
1000
0000
1000
,
0000
1000
0000
1000
0000
0000
0000
0010
,
0000
0000
0000
0010
0000
0000
0000
1000
,
0000
1000
0000
1000
0000
0000
0000
0100
,
0000
0000
0000
0100
0000
0000
0000
0001
,
0000
0001
0000
0001
0000
0000
0000
0010
,
0000
0010
0000
0010
0000
0010
0000
0010
,
0000
0010
0000
0010
0000
0000
0000
1000
,
0000
0000
0000
0110
0000
0000
0000
0000
,
0000
0000
0000
1000
0000
0000
0000
0010
,
0000
0000
0000
0100
0000
0000
0000
0001
,
0000
0000
0000
1000
0000
0000
0000
0010
,
0000
0000
0000
0100
0000
0000
0000
0001
,
0000
0000
0000
1000
0000
1000
0000
1000
,
0000
0000
0000
0001
0000
0001
0000
0001
,
0000
0000
0000
0200
0000
0000
0000
0300
,
0000
0000
0000
0010
0000
0010
0000
0010
,
0000
0000
0000
1001
0000
1001
0000
1001
,
0000
0000
0000
0000
0000
0001
0000
0000
,
0000
0100
0000
0000
0000
1000
0000
1000
,
0000
0000
0000
0100
0000
0100
0000
0100
,
0000
0100
0000
0100
0000
0000
0000
0000
,
0000
0000
0000
1000
0000
0000
0000
0010
,
0000
0000
0000
0100
0000
0000
0000
0010
,
0000
0000
0000
1000
0000
0000
0000
1000
,
0000
0000
0000
1001
0000
0000
0000
0000
,
0000
0000
0000
0000
0000
0010
0000
0000
,
0000
0100
0000
0000
0000
0001
0000
0001
,
0000
0000
0000
0100
0000
0100
0000
0100
,
0000
0100
0000
0100
0000
0000
0000
0000
,
0000
0000
0000
0010
0000
0000
0000
0001
,
0000
0000
0000
1000
0000
0000
0000
0100
,
0000
0000
0000
0001
0000
0000
0000
0001
,
0000
0000
0000
1001
0000
0000
0000
0000
,
0000
0000
0000
0001
0000
0000
0000
0010
,
0000
0000
0000
0001
0000
0000
0000
0100
,
0000
0000
0000
0010
0000
0000
0000
0010
,
0000
0000
0000
0010
0000
0000
0000
0000
,
0000
0000
0000
0110
0000
0000
0000
0000
;

//---------------dance-single - ----------------
#NOTES:
     dance-single:
     :
     Easy:
     4:
     0.291,0.309,0.190,0.219,0.000,163.000,19.000,22.000,0.000,0.000:
0000
0000
0000
0100
0000
0000
0000
0001
,
0000
0000
0000
0100
0000
0000
0000
0000
,
0000
0000
0000
0001
0000
1000
0000
0001
,
0000
1000
0000
0002
0000
0003
0000
0000
,
0000
0000
0000
0200
0000
0000
0000
0310
,
0000
0000
0000
0002
0000
0000
0000
1003
,
0000
0000
0000
0100
0000
0000
0000
0001
,
0000
0000
0000
1000
0000
0000
0000
0000
,
0000
0010
0000
0001
0000
0000
0000
1000
,
0000
0000
0000
0010
0000
0000
0000
0000
,
0000
0000
0000
0100
0000
1000
0000
0100
,
0000
1000
0000
0100
0000
0000
0000
0000
,
0000
0000
0000
0002
0000
0000
0000
0103
,
0000
0000
0000
0002
0000
0000
0000
0103
,
0000
1000
0000
1000
0000
0000
0000
0010
,
0000
0000
0000
0100
0000
0000
0000
0000
,
0000
1000
0000
0010
0000
0100
0000
0010
,
0000
1000
0000
0001
0000
0100
0000
0010
,
0000
1000
0000
0100
0000
0001
0000
0010
,
0000
1000
0000
0100
0000
0010
0000
0001
,
0000
0100
0000
0001
0000
1000
0000
0010
,
0000
0100
0000
0001
0000
1000
0000
0001
,
0000
0010
0000
0100
0000
1000
0000
0100
,
0000
0001
0000
0100
0000
1000
0000
0010
,
0000
0001
0000
0020
0000
0000
0000
0130
,
0000
1000
0000
0100
0000
0010
0000
0001
,
0000
1000
0000
0020
0000
0000
0000
0130
,
0000
0001
0000
0010
0000
0100
0000
0010
,
0000
0001
0000
0020
0000
0000
0000
1030
,
0000
0100
0000
0001
0000
0100
0000
1000
,
0000
0100
0000
0020
0000
0000
0000
0130
,
0000
0100
0000
2002
0000
0000
0000
0000
,
0000
0000
3003
1001
0000
0010
0000
0100
,
0000
1000
0000
1001
0000
1000
0000
0100
,
0000
0010
0000
1001
0000
0001
0000
0010
,
0000
0100
0000
1001
0000
0100
0000
0100
,
0000
0100
0000
1001
0000
0010
0000
0010
,
0000
0010
0000
1001
0000
0100
0000
0100
,
0000
0100
0000
0002
0000
0000
0000
0000
,
0000
0000
0000
0100
0000
0100
0000
0103
,
0000
0000
0000
1001
0000
1001
0000
1001
,
0000
0000
0000
0000
0000
0101
0000
0000
,
0000
1100
0000
0000
0000
0110
0000
0110
,
0000
0000
0000
0100
0000
0010
0000
0100
,
0000
0010
0000
0200
0000
0300
0000
0000
,
0000
0000
0000
2000
0000
0000
0000
3010
,
0000
0000
0000
2000
0000
0000
0000
3010
,
0000
0000
0000
0001
0000
0000
0000
1000
,
0000
0000
0000
0010
0000
0000
0000
0000
,
0000
0000
0000
0000
0000
0011
0000
0000
,
0000
1010
0000
0000
0000
1001
0000
1001
,
0000
0000
0000
0010
0000
0001
0000
0010
,
0000
0001
0000
0020
0000
0030
0000
0000
,
0000
0000
0000
0020
0000
0000
0000
0031
,
0000
0000
0000
0020
0000
0000
0000
0031
,
0000
0000
0000
1000
0000
0000
0000
0100
,
0000
0000
0000
0001
0000
0000
0000
0000
,
0000
0001
0000
2000
0000
0000
0000
3010
,
0000
0000
0000
0200
0000
0000
0000
0301
,
0000
0010
0000
0100
0000
0000
0000
0001
,
0000
0000
0000
1000
0000
0000
0000
0000
,
0000
0000
0000
2002
0000
0000
0000
3003
;
